1. Ta strona wykorzystuje ciasteczka (cookies) w celu: utrzymania sesji zalogowanego Użytkownika, gromadzenia informacji związanych z korzystaniem z serwisu, ułatwienia Użytkownikom korzystania z niego, dopasowania treści wyświetlanych Użytkownikowi oraz tworzenia statystyk oglądalności czy efektywności publikowanych reklam.Użytkownik ma możliwość skonfigurowania ustawień cookies za pomocą ustawień swojej przeglądarki internetowej. Użytkownik wyraża zgodę na używanie i wykorzystywanie cookies oraz ma możliwość wyłączenia cookies za pomocą ustawień swojej przeglądarki internetowej. Dowiedz się więcej.
  2. Rejestracja na forum zamknięta, dostęp tylko przez zaproszenia. Gdzie znajdę zaproszenia?

Filmy bluray rip

Temat na forum 'Problemy rozwiązane' rozpoczęty przez Baraneek, Listopad 11, 2012.

Status Tematu:
Zamknięty.
  1. Baraneek

    Baraneek Wódz LD
    Moderator Kapitan Regeneration Team Lynda Team Goony Team

    Dołączył:
    Styczeń 12, 2008
    Posty:
    3391
    Polubienia:
    263
    Witam :) Filmy odtwarzam za pomocą telewizora z seri sony bravia za pomocą pendrive :) Mam taki problem, że niby nie obsługuje popularnych codeców
    a pisze, że filmy mpeg 4 odtwarza. Jeden filmy zadziałał a miał takie parametry:

    Kod:
    Rozmiar pliku: 1.006 GiB (1080308898 bajtów)
    Czas trwania: 00:39:51.872 (2391872 ms)
    Ogólne bitrate pliku: 3 613 Kbps
    Format: AVI
    
    Video FPS: 25.000
    Video kodek: XviD
    Video bitrate: 3 285 Kbps
    Video rozdzielczość: 1280x720
    Video rozmiar: 937 MiB (91%)
    Video proporcje obrazu: 16:9
    
    Audio format: AC-3
    Audio format wynik: Audio Coding 3
    Audio bitrate: 320 Kbps
    Audio liczba kanałów: 6
    Audio sampling rate: 48.0 KHz
    Audio resolution: 16 bits
    Audio rozmiar: 91.2 MiB (9%)
    ===========================
    Czy ktoś mógłby pomoc i dopasować jakiekolwiek filmy do tych danych. Nie wiem czy w dobrym dziale piszę jeżeli nie to proszę i usunięcie posta :)

    E:
    No, nie bardzo, ale już przeniesiony w lepsze miejsce //Kot
     
    #1 Baraneek, Listopad 11, 2012
    Ostatnio edytowane przez moderatora: Listopad 11, 2012
  2. Eitan

    Eitan Generał - Osobistość | Wódz MM
    Moderator Generał Tester MH Sport Team Music Maniacs Goony Team

    Dołączył:
    Maj 29, 2006
    Posty:
    16322
    Polubienia:
    4039
    No tak, ale powyższy film jest kodowany w XviD. Twój TV nie będzie mieć problemów z odtwarzaniem plików avi.
    Być może ma nieaktualne kodeki H.264/MPEG-4 AVC ...
     
  3. maciek77

    maciek77 Generał
    Konsul Generał Infernal Group

    Dołączył:
    Wrzesień 1, 2008
    Posty:
    10885
    Polubienia:
    90
    zapodaj jakiś film którego TV nie odtwarza
     
  4. Baraneek

    Baraneek Wódz LD
    Moderator Kapitan Regeneration Team Lynda Team Goony Team

    Dołączył:
    Styczeń 12, 2008
    Posty:
    3391
    Polubienia:
    263
    film z kodekiem który otwiera (dokładne dane):

    Kod:
    General
    Complete name                            : G:\U.Pana.Boga.W.Ogodku.E01.2007.PL.HDTV.720p.XVID-DRP.avi
    Format                                   : AVI
    Format/Info                              : Audio Video Interleave
    File size                                : 1.01 GiB
    Duration                                 : 39mn 51s
    Overall bit rate                         : 3 613 Kbps
    
    Video
    ID                                       : 0
    Format                                   : MPEG-4 Visual
    Format profile                           : Advanced [email protected]
    Format settings, BVOP                    : 1
    Format settings, QPel                    : No
    Format settings, GMC                     : No warppoints
    Format settings, Matrix                  : Default (H.263)
    Muxing mode                              : Packed bitstream
    Codec ID                                 : XVID
    Codec ID/Hint                            : XviD
    Duration                                 : 39mn 51s
    Bit rate                                 : 3 285 Kbps
    Width                                    : 1 280 pixels
    Height                                   : 720 pixels
    Display aspect ratio                     : 16:9
    Frame rate                               : 25.000 fps
    Color space                              : YUV
    Chroma subsampling                       : 4:2:0
    Bit depth                                : 8 bits
    Scan type                                : Progressive
    Compression mode                         : Lossy
    Bits/(Pixel*Frame)                       : 0.143
    Stream size                              : 937 MiB (91%)
    Writing library                          : XviD 1.2.1 (UTC 2008-12-04)
    
    Audio
    ID                                       : 1
    Format                                   : AC-3
    Format/Info                              : Audio Coding 3
    Mode extension                           : CM (complete main)
    Format settings, Endianness              : Big
    Codec ID                                 : 2000
    Duration                                 : 39mn 51s
    Bit rate mode                            : Constant
    Bit rate                                 : 320 Kbps
    Channel(s)                               : 6 channels
    Channel positions                        : Front: L C R, Side: L R, LFE
    Sampling rate                            : 48.0 KHz
    Bit depth                                : 16 bits
    Compression mode                         : Lossy
    Stream size                              : 91.2 MiB (9%)
    Alignment                                : Aligned on interleaves
    Interleave, duration                     : 64 ms (1.60 video frames)
    Interleave, preload duration             : 192 ms
    Title                                    : U.Pana.Boga.W.Ogodku.E01 T80 3_2ch 384Kbps DELAY 0ms_new
    
    film którego nie odtwarza np. :

    Sztos 2 2012 PL 720p BRRip AC3 XviD CiNEMAET-SAVED.avi

    info:

    Kod:
    General
    Complete name                            : E:\Filmy\Sztos 2 2012 PL 720p BRRip AC3 XviD CiNEMAET-SAVED.avi
    Format                                   : AVI
    Format/Info                              : Audio Video Interleave
    Format profile                           : OpenDML
    File size                                : 2.96 GiB
    Duration                                 : 1h 49mn
    Overall bit rate                         : 3 878 Kbps
    
    Video
    ID                                       : 0
    Format                                   : MPEG-4 Visual
    Format profile                           : Advanced [email protected]
    Format settings, BVOP                    : 2
    Format settings, QPel                    : No
    Format settings, GMC                     : No warppoints
    Format settings, Matrix                  : Default (H.263)
    Codec ID                                 : XVID
    Codec ID/Hint                            : XviD
    Duration                                 : 1h 49mn
    Bit rate                                 : 3 499 Kbps
    Width                                    : 1 280 pixels
    Height                                   : 720 pixels
    Display aspect ratio                     : 16:9
    Frame rate                               : 24.000 fps
    Color space                              : YUV
    Chroma subsampling                       : 4:2:0
    Bit depth                                : 8 bits
    Scan type                                : Progressive
    Compression mode                         : Lossy
    Bits/(Pixel*Frame)                       : 0.158
    Stream size                              : 2.67 GiB (90%)
    Writing library                          : XviD 1.2.1 (UTC 2008-12-04)
    
    Audio
    ID                                       : 1
    Format                                   : AC-3
    Format/Info                              : Audio Coding 3
    Mode extension                           : CM (complete main)
    Format settings, Endianness              : Big
    Codec ID                                 : 2000
    Duration                                 : 1h 44mn
    Bit rate mode                            : Constant
    Bit rate                                 : 384 Kbps
    Channel(s)                               : 6 channels
    Channel positions                        : Front: L C R, Side: L R, LFE
    Sampling rate                            : 48.0 KHz
    Bit depth                                : 16 bits
    Compression mode                         : Lossy
    Stream size                              : 288 MiB (10%)
    Alignment                                : Split accross interleaves
    Interleave, duration                     : 43 ms (1.04 video frame)
    Interleave, preload duration             : 500 ms
    
    inny film:

    Kod:
    General
    Complete name                            : H:\filmy\Men.In.Black.3.2012.720p.PL.BRRip.AC3.XviD-OldStarS.avi
    Format                                   : AVI
    Format/Info                              : Audio Video Interleave
    Format profile                           : OpenDML
    File size                                : 2.63 GiB
    Duration                                 : 1h 45mn
    Overall bit rate                         : 3 563 Kbps
    Writing application                      : VirtualDubMod 1.5.10.2 (build 2540/release)
    Writing library                          : VirtualDubMod build 2540/release
    
    Video
    ID                                       : 0
    Format                                   : MPEG-4 Visual
    Format profile                           : [email protected]
    Format settings, BVOP                    : No
    Format settings, QPel                    : No
    Format settings, GMC                     : No warppoints
    Format settings, Matrix                  : Default (H.263)
    Codec ID                                 : XVID
    Codec ID/Hint                            : XviD
    Duration                                 : 1h 45mn
    Bit rate                                 : 3 104 Kbps
    Width                                    : 1 280 pixels
    Height                                   : 688 pixels
    Display aspect ratio                     : 1.85:1
    Frame rate                               : 23.976 fps
    Color space                              : YUV
    Chroma subsampling                       : 4:2:0
    Bit depth                                : 8 bits
    Scan type                                : Progressive
    Compression mode                         : Lossy
    Bits/(Pixel*Frame)                       : 0.147
    Stream size                              : 2.29 GiB (87%)
    Writing library                          : XviD 64
    
    Audio
    ID                                       : 1
    Format                                   : AC-3
    Format/Info                              : Audio Coding 3
    Mode extension                           : CM (complete main)
    Format settings, Endianness              : Big
    Codec ID                                 : 2000
    Duration                                 : 1h 45mn
    Bit rate mode                            : Constant
    Bit rate                                 : 448 Kbps
    Channel(s)                               : 6 channels
    Channel positions                        : Front: L C R, Side: L R, LFE
    Sampling rate                            : 48.0 KHz
    Bit depth                                : 16 bits
    Compression mode                         : Lossy
    Stream size                              : 339 MiB (13%)
    Alignment                                : Split accross interleaves
    Interleave, duration                     : 42 ms (1.00 video frame)
    Interleave, preload duration             : 500 ms
    telewizor to sony bravia kdl-32EX711 i chyba chodzi o kodowanie. Według producenta:

    tylko skąd mam wiedzieć czy odtworzy czy nie :( muszę każdy film sprawdzać w lepszej jakości ? trochę to męczące ale na pewno lepsze od nagrywania na płyty :)
     
  5. przemo83

    przemo83 Podporucznik
    Konsul Podporucznik

    Dołączył:
    Czerwiec 10, 2005
    Posty:
    218
    Polubienia:
    2
    sony zawsze mialo problem z odtwarzaniem przez usb, haczyk jest w tym ze pod usb oficjalnie wspierane jest tylko MPEG1 i nawet aktualizacja softu nie pomoze...
     
  6. Baraneek

    Baraneek Wódz LD
    Moderator Kapitan Regeneration Team Lynda Team Goony Team

    Dołączył:
    Styczeń 12, 2008
    Posty:
    3391
    Polubienia:
    263
    hmm udało się wykminić, filmy grupy ELiTE sprawują się bardzo dobrze. Są lepsze od zwykłych dvdripów, zawsze to ciut lepsza jakość i lepiej się ogląda na takim telewizorze. Dzięki
    za wszystkie podpowiedzi. Temat można usunąć :)
     
Wczytywanie...
Status Tematu:
Zamknięty.