1. Ta strona wykorzystuje ciasteczka (cookies) w celu: utrzymania sesji zalogowanego Użytkownika, gromadzenia informacji związanych z korzystaniem z serwisu, ułatwienia Użytkownikom korzystania z niego, dopasowania treści wyświetlanych Użytkownikowi oraz tworzenia statystyk oglądalności czy efektywności publikowanych reklam.Użytkownik ma możliwość skonfigurowania ustawień cookies za pomocą ustawień swojej przeglądarki internetowej. Użytkownik wyraża zgodę na używanie i wykorzystywanie cookies oraz ma możliwość wyłączenia cookies za pomocą ustawień swojej przeglądarki internetowej. Dowiedz się więcej.
  2. Rejestracja na forum zamknięta, dostęp tylko przez zaproszenia. Gdzie znajdę zaproszenia?

Ghost In The Shell 2017 HDRip XviD AC3

Temat na forum 'Upload' rozpoczęty przez yacek, Lipiec 6, 2017.

  1. yacek

    yacek Gość

    Ghost In The Shell 2017 HDRip XviD AC3

    [​IMG]

    Gatunek: Thriller, Akcja, Sci-Fi
    Produkcja: USA
    Premiera: 31 marca 2017 (Polska) 16 marca 2017 (świat)
    Reżyseria: Rupert Sanders
    Scenariusz: Jamie Moss, Jonathan Herman, William Wheeler
    Ocena: 6,6/10

    OBSADA

    Scarlett Johansson - Major
    Pilou Asbćk - Batou
    Takeshi Kitano - Aramaki
    Juliette Binoche - Dr Ouelet
    Michael Pitt - Kuze
    Chin Han - Togusa
    Danusia Samal - Ladriya
    Lasarus Ratuere - Ishikawa


    OPIS
    Policjantka cyborg próbuje odnaleźć niebezpiecznego hakera.

    SCREENY
    [​IMG]

    [​IMG]

    [​IMG]

    AVI CODEC
    Kod:
    Format                                   : AVI
    Format/Info                              : Audio Video Interleave
    File size                                : 1.38 GiB
    Duration                                 : 1 h 47 min
    Overall bit rate                         : 1 846 kb/s
    Writing library                          : VirtualDub build 32593/release
    
    Video
    ID                                       : 0
    Format                                   : MPEG-4 Visual
    Format profile                           : Advanced [email protected]
    Format settings, BVOP                    : 2
    Format settings, QPel                    : No
    Format settings, GMC                     : No warppoints
    Format settings, Matrix                  : Default (H.263)
    Muxing mode                              : Packed bitstream
    Codec ID                                 : XVID
    Codec ID/Hint                            : XviD
    Duration                                 : 1 h 47 min
    Bit rate                                 : 1 452 kb/s
    Width                                    : 720 pixels
    Height                                   : 400 pixels
    Display aspect ratio                     : 16:9
    Frame rate                               : 23.976 (24000/1001) FPS
    Color space                              : YUV
    Chroma subsampling                       : 4:2:0
    Bit depth                                : 8 bits
    Scan type                                : Progressive
    Compression mode                         : Lossy
    Bits/(Pixel*Frame)                       : 0.210
    Stream size                              : 1.09 GiB (79%)
    Writing library                          : XviD 66
    
    Audio
    ID                                       : 1
    Format                                   : AC-3
    Format/Info                              : Audio Coding 3
    Mode extension                           : CM (complete main)
    Format settings, Endianness              : Big
    Codec ID                                 : 2000
    Duration                                 : 1 h 47 min
    Bit rate mode                            : Constant
    Bit rate                                 : 384 kb/s
    Channel(s)                               : 6 channels
    Channel positions                        : Front: L C R, Side: L R, LFE
    Sampling rate                            : 48.0 kHz
    Frame rate                               : 31.250 FPS (1536 spf)
    Compression mode                         : Lossy
    Stream size                              : 294 MiB (21%)
    Alignment                                : Aligned on interleaves
    Interleave, duration                     : 42  ms (1.00 video frame)
    Interleave, preload duration             : 512  ms
    
    
    
    DOWNLOAD

    Nazwa pliku: ghost.in.the.shell.2017.hdrip.xvid.ac3-evo.avi
    Liczba plików: 1

    Liczba grup: 1
    Rozmiar pliku: 1,38 GB
    CRC32: 850453A3,
    Rozmiar segmentu: 10,00 MB
    Liczba segmentów: 142
    Liczba mirrorów: 4 (2x onet.pl, 2x mail.ru)
    Hasło do pobierania: p2mforum.info
    Pokaż/ukryj HashCode MoorHunt HashCode:
    <<fa1736&mp2[WVnyy3m~:aND#JO#:$u}s=UgK2WY/BJ^fEQgMi_dU^hghc"]5;G NCB<Ojb[MUbCLl.1>9EFyRdM&f@[jD.Y|+UeH6L|clW1he4l|=pTQ;+6`pRKRVLq 00`tK.OJ$!sDJ2:"[email protected];%?+V/Ct?/ |AgckkMm1D_^B^?oGSg|BV7DB(Qy`2u/`k5jUh+Sy5([email protected]?"vRu^;8?+ *{_x.8[0>/~?o!~rb*X_G,Mz2BK0zG]DPwx<[email protected];b,ES%URMX&NPcv=d: JtsFSc(#P{u}P+?qQv}>/)$,F3D/E>V/4g<nb{iyui_v/gdAoRjM}~dwaoeL:XFt Fb*X^v0g;1gt9a<oMo?[xQ?y^/|x,??3~p=}v_p36F1lR~?L0q1BE3`JxXB>>
    Wszelkie pliki uzyskane za pomocą tematów zawartych na forum, należy po ich przetestowaniu niezwłocznie skasować, gdyż ich posiadanie i rozpowszechnianie stanowi przestępstwo. Mają one charakter wyłącznie edukacyjny, zmierzający do poznania działania technologii p2m, lub sposobu działania danego oprogramowania przed decyzja o jego zakupie.

    [email protected]
     
  2. Swetr

    Swetr midnight jazzin'
    Uploader Major

    Dołączył:
    Grudzień 18, 2007
    Posty:
    5003
    Polubienia:
    871
    --Grupa 1, onet.pl:
    ----OK
    --Grupa 1, onet.pl:
    ----OK
    --Grupa 1, mail.ru:
    ----Brak segmentów: ghost.in.the.shell.2017.hdrip.xvid.ac3-evo.avi: 45,107;
    --Grupa 1, mail.ru:
    ----Brak segmentów: ghost.in.the.shell.2017.hdrip.xvid.ac3-evo.avi: 45,107;

    Zaloguj się ręcznie na skrzynki mail.ru i zobacz czy w Spamie nie ma tych dwóch segmentów. Jeśli są - trzeba je przenieść, jeśli nie ma - trzeba je ponownie dosłać MH lub przesłać ręcznie z konta onetowego.
     
  3. yacek

    yacek Gość

    Teraz powinno być wszystko w porządku.
     
Wczytywanie...